imdb
rating

7.2
The Adventures of Ichabod and Mr. Toad

The Adventures of Ichabod and Mr. Toad (1949)

Animation, Fantasy, Horror, Family

Full description
quality   dvdr dvdrip x264 hd bd fullhd

Le avventure di Ichabod e Mr. Toad - The Adventures of Ichabod and Mr. Toad (1949 Ita/Eng) + EXTRA [1080p] [iCV-MIRCrew] [Isohunt.to]

Size 2.918 GB   17 seeders     Added 2017-04-19 04:41:36

[center]

[img]http://i.imgur.com/wkDlcoa.png[/img]

[img]http://i.imgur.com/jaQAPLa.png[/img]

[img]http://s23.postimg.org/end4lngmj/Cover.png[/img]


[b][color=blue]Le avventure di Ichabod e Mr. Toad (1949)[/color][/b]


[img]http://i.imgur.com/bWEfTCo.png[/img]

Titolo originale: The Adventures of Ichabod and Mr. Toad
Nazionalità: USA
Anno: 1949
Genere: animazione, fantastico, avventura, orrore, musicale
Regia: Jack Kinney, Clyde Geronimi, James Algar
Durata: 68 min


[img]http://i.imgur.com/3WQCQCo.png[/img]

Il ricco e generoso Taddeo Rospo ha l'abitudine di cacciarsi spesso nei guai a causa della poca importanza che dà al denaro e delle sue strane e incontenibili manie. Così, quando si mette in testa di avere una fiammante auto rossa, nemmeno gli amici Tasso Mc Tass, Topus Water Rat e Talpino Sweet Mallow riescono a salvarlo dall'accusa di furto e dal carcere.
Ichabod Crane è invece uno strampalato insegnante che, arrivato in nuova città, finisce per invaghirsi di Katrina Van Tassel, la ragazza più bella e ambita. Ciò gli attira però le ire del bullo Brom Bones, che lo terrorizzerà con la storia del cavaliere nero senza testa.


[img]http://i.imgur.com/CB4Mdtb.png[/img]

[url=http://postimg.org/image/gphpdapap/][img]http://s16.postimg.org/gphpdapap/vlcsnap-error399.png[/img][/url] [url=http://postimg.org/image/hgafj2ro1/][img]http://s16.postimg.org/hgafj2ro1/vlcsnap-error446.png[/img][/url] [url=http://postimg.org/image/4deszt1g1/][img]http://s16.postimg.org/4deszt1g1/vlcsnap-error460.png[/img][/url] [url=http://postimg.org/image/mu97qmhe9/][img]http://s16.postimg.org/mu97qmhe9/vlcsnap-error525.png[/img][/url]

[url=http://postimg.org/image/m60d7oioh/][img]http://s16.postimg.org/m60d7oioh/vlcsnap-error644.png[/img][/url] [url=http://postimg.org/image/5jisylpqp/][img]http://s16.postimg.org/5jisylpqp/vlcsnap-error750.png[/img][/url] [url=http://postimg.org/image/hzfiscj2p/][img]http://s16.postimg.org/hzfiscj2p/vlcsnap-error955.png[/img][/url] [url=http://postimg.org/image/i0pglrkwh/][img]http://s16.postimg.org/i0pglrkwh/vlcsnap-error983.png[/img][/url]


[img]http://i.imgur.com/Nfvwker.png[/img]

General
Unique ID                   : 214190022706259852641159255703657084184 (0xA1237F7338CEEE6EB3158FE63DD37518)
Complete name               : F:\FILE DA CONDIVIDERE\Le avventure di Ichabod e Mr. Toad (1949) - 1080p EXTRA iCV-MIRCrew\Le avventure di Ichabod e Mr. Toad (1949) - 1080p iCV-MIRCrew.mkv
Format                      : Matroska
Format version              : Version 4 / Version 2
File size                   : 2.51 GiB
Duration                    : 1 h 8 min
Overall bit rate            : 5 276 kb/s
Encoded date                : UTC 2017-04-16 23:15:31
Writing application         : mkvmerge v9.8.0 ('Kuglblids') 64bit
Writing library             : libebml v1.3.4 + libmatroska v1.4.5
Cover                       : Yes
Attachments                 : cover.png / small_cover.png

Video
ID                          : 1
Format                      : AVC
Format/Info                 : Advanced Video Codec
Format profile              : [email protected]
Format settings, CABAC      : Yes
Format settings, ReFrames   : 5 frames
Codec ID                    : V_MPEG4/ISO/AVC
Duration                    : 1 h 8 min
Bit rate                    : 4 503 kb/s
Width                       : 1 436 pixels
Height                      : 1 076 pixels
Display aspect ratio        : 4:3
Frame rate mode             : Constant
Frame rate                  : 23.976 (24000/1001) FPS
Color space                 : YUV
Chroma subsampling          : 4:2:0
Bit depth                   : 8 bits
Scan type                   : Progressive
Bits/(Pixel*Frame)          : 0.122
Stream size                 : 2.14 GiB (85%)
Default                     : Yes
Forced                      : No
Color range                 : Limited
Color primaries             : BT.709
Transfer characteristics    : BT.709
Matrix coefficients         : BT.709

Audio #1
ID                          : 2
Format                      : AC-3
Format/Info                 : Audio Coding 3
Mode extension              : CM (complete main)
Format settings, Endianness : Big
Codec ID                    : A_AC3
Duration                    : 1 h 8 min
Bit rate mode               : Constant
Bit rate                    : 384 kb/s
Channel(s)                  : 6 channels
Channel positions           : Front: L C R, Side: L R, LFE
Sampling rate               : 48.0 kHz
Frame rate                  : 31.250 FPS (1536 spf)
Bit depth                   : 16 bits
Compression mode            : Lossy
Stream size                 : 187 MiB (7%)
Language                    : Italian
Default                     : Yes
Forced                      : No

Audio #2
ID                          : 3
Format                      : AC-3
Format/Info                 : Audio Coding 3
Mode extension              : CM (complete main)
Format settings, Endianness : Big
Codec ID                    : A_AC3
Duration                    : 1 h 8 min
Bit rate mode               : Constant
Bit rate                    : 384 kb/s
Channel(s)                  : 6 channels
Channel positions           : Front: L C R, Side: L R, LFE
Sampling rate               : 48.0 kHz
Frame rate                  : 31.250 FPS (1536 spf)
Bit depth                   : 16 bits
Compression mode            : Lossy
Stream size                 : 187 MiB (7%)
Language                    : English
Default                     : No
Forced                      : No

Text #1
ID                          : 4
Format                      : UTF-8
Codec ID                    : S_TEXT/UTF8
Codec ID/Info               : UTF-8 Plain Text
Duration                    : 48 min 19 s
Bit rate                    : 1 b/s
Count of elements           : 13
Stream size                 : 405 Bytes (0%)
Title                       : FORCED
Language                    : Italian
Default                     : Yes
Forced                      : Yes

Text #2
ID                          : 5
Format                      : UTF-8
Codec ID                    : S_TEXT/UTF8
Codec ID/Info               : UTF-8 Plain Text
Duration                    : 1 h 7 min
Bit rate                    : 59 b/s
Count of elements           : 647
Stream size                 : 29.3 KiB (0%)
Language                    : Italian
Default                     : No
Forced                      : No

Text #3
ID                          : 6
Format                      : UTF-8
Codec ID                    : S_TEXT/UTF8
Codec ID/Info               : UTF-8 Plain Text
Duration                    : 1 h 7 min
Bit rate                    : 55 b/s
Count of elements           : 642
Stream size                 : 27.4 KiB (0%)
Language                    : English
Default                     : No
Forced                      : No


[img]http://i.imgur.com/pBGfMGu.png[/img]

In questa versione sono compresi gli extra:

1 - Gli scaccia fantasmi - cortometraggio animato
2 - La folle corsa di Ichabod e Mr. Toad - Canta con noi

[/center]
Le avventure di Ichabod e Mr. Toad (1949) - 1080p iCV-MIRCrew.mkv 2.695 GB
EXTRA - iCV-MIRCrew/2 - La folle corsa di Ichabod e Mr. Toad - Canta con noi.mkv 54.061 MB
EXTRA - iCV-MIRCrew/1 - Gli scaccia fantasmi - cortometraggio animato.mkv 169.039 MB
Gathering some info...

Register and log in Isohunt and see no captcha anymore!

4000 symbols left
Hash 9b41b18f60a76ed113356994ad83ab3b21a5e443

Related torrents for "Le avventure di Ichabod e Mr. Toad - The Adventures of Ichabod and Mr. Toad (1949 Ita/Eng) + EXTRA [1080p] [iCV-MIRCrew] [Isohunt.to]"

Torrent search:

italian english 1949 fullhd