Lo scrigno delle sette perle - Melody Time (1948 Ita/Eng) + EXTRA [iCV-MIRCrew] [Isohunt.to]

Size 1.636 GB   60 seeders     Added 2017-04-19 19:09:29

[center]

[img]http://i.imgur.com/wkDlcoa.png[/img]

[img]http://i.imgur.com/jaQAPLa.png[/img]

[img]http://s29.postimg.org/h8enpi4hj/Cover.png[/img]


[b][color=blue]Lo scrigno delle sette perle (1948)[/color][/b]


[img]http://i.imgur.com/bWEfTCo.png[/img]

Titolo originale: Melody Time
Nazionalità: USA
Anno: 1948
Genere: animazione, musicale
Regia: Clyde Geronimi, Wilfred Jackson, Hamilton Luske, Jack Kinney
Durata: 72 min


[img]http://i.imgur.com/3WQCQCo.png[/img]

Assemblaggio di sette cartoni animati: "Giovannino, seme di mela", "Paperino carioca e un loro esotico amico", "Pecos Bill", "Il calabrone" (con musica di di Rimskij Korsakov), "Little Toot" (su un piccolo rimorchiatore), "Alberi" e "Once Upon a Wintertime" (una storia romantica su un paesaggio invernale). Campionario del puro stile Disney, una sorta di aggiornamento delle vecchie "Silly Symphonies" con un occhio a "Fantasia".


[img]http://i.imgur.com/CB4Mdtb.png[/img]

[url=http://postimg.org/image/68frqn5xn/][img]http://s9.postimg.org/68frqn5xn/vlcsnap-error305.png[/img][/url] [url=http://postimg.org/image/qtujijnij/][img]http://s9.postimg.org/qtujijnij/vlcsnap-error399.png[/img][/url] [url=http://postimg.org/image/gxtgiwhqj/][img]http://s9.postimg.org/gxtgiwhqj/vlcsnap-error428.png[/img][/url] [url=http://postimg.org/image/fk1tnlih7/][img]http://s9.postimg.org/fk1tnlih7/vlcsnap-error557.png[/img][/url]

[url=http://postimg.org/image/lm9ge36x7/][img]http://s9.postimg.org/lm9ge36x7/vlcsnap-error592.png[/img][/url] [url=http://postimg.org/image/j6c8dze8b/][img]http://s9.postimg.org/j6c8dze8b/vlcsnap-error737.png[/img][/url] [url=http://postimg.org/image/hsklioeyz/][img]http://s9.postimg.org/hsklioeyz/vlcsnap-error762.png[/img][/url] [url=http://postimg.org/image/okb0lj3yj/][img]http://s9.postimg.org/okb0lj3yj/vlcsnap-error956.png[/img][/url]


[img]http://i.imgur.com/Nfvwker.png[/img]

General
Unique ID                   : 226263971915410797507492498581198643164 (0xAA38DB1B43F68DD38C1974D815E69FDC)
Complete name               : F:\FILE DA CONDIVIDERE\Lo scrigno delle sette perle (1948) - EXTRA iCV-MIRCrew\Lo scrigno delle sette perle (1948) - iCV-MIRCrew.mkv
Format                      : Matroska
Format version              : Version 4 / Version 2
File size                   : 1.14 GiB
Duration                    : 1 h 12 min
Overall bit rate            : 2 264 kb/s
Encoded date                : UTC 2017-04-17 15:59:26
Writing application         : mkvmerge v9.8.0 ('Kuglblids') 64bit
Writing library             : libebml v1.3.4 + libmatroska v1.4.5
Cover                       : Yes
Attachments                 : cover.png / small_cover.png

Video
ID                          : 1
Format                      : AVC
Format/Info                 : Advanced Video Codec
Format profile              : [email protected]
Format settings, CABAC      : Yes
Format settings, ReFrames   : 5 frames
Codec ID                    : V_MPEG4/ISO/AVC
Duration                    : 1 h 12 min
Bit rate                    : 1 423 kb/s
Width                       : 660 pixels
Height                      : 544 pixels
Display aspect ratio        : 1.294
Frame rate mode             : Constant
Frame rate                  : 25.000 FPS
Color space                 : YUV
Chroma subsampling          : 4:2:0
Bit depth                   : 8 bits
Scan type                   : Progressive
Bits/(Pixel*Frame)          : 0.158
Stream size                 : 736 MiB (63%)
Writing library             : x264 core 148 r2708 86b7198
Encoding settings           : cabac=1 / ref=5 / deblock=1:0:0 / analyse=0x3:0x113 / me=umh / subme=8 / psy=1 / psy_rd=1.00:0.00 / mixed_ref=1 / me_range=16 / chroma_me=1 / trellis=1 / 8x8dct=1 / cqm=0 / deadzone=21,11 / fast_pskip=1 / chroma_qp_offset=-2 / threads=12 / lookahead_threads=2 / sliced_threads=0 / nr=0 / decimate=1 / interlaced=0 / bluray_compat=0 / constrained_intra=0 / bframes=3 / b_pyramid=2 / b_adapt=2 / b_bias=0 / direct=3 / weightb=1 / open_gop=0 / weightp=2 / keyint=250 / keyint_min=25 / scenecut=40 / intra_refresh=0 / rc_lookahead=50 / rc=crf / mbtree=1 / crf=20.0 / qcomp=0.60 / qpmin=0 / qpmax=69 / qpstep=4 / vbv_maxrate=25000 / vbv_bufsize=31250 / crf_max=0.0 / nal_hrd=none / filler=0 / ip_ratio=1.40 / aq=1:1.00
Default                     : Yes
Forced                      : No
Color range                 : Limited
Color primaries             : BT.601 PAL
Transfer characteristics    : BT.709
Matrix coefficients         : BT.601

Audio #1
ID                          : 2
Format                      : AC-3
Format/Info                 : Audio Coding 3
Mode extension              : CM (complete main)
Format settings, Endianness : Big
Codec ID                    : A_AC3
Duration                    : 1 h 12 min
Bit rate mode               : Constant
Bit rate                    : 384 kb/s
Channel(s)                  : 6 channels
Channel positions           : Front: L C R, Side: L R, LFE
Sampling rate               : 48.0 kHz
Frame rate                  : 31.250 FPS (1536 spf)
Bit depth                   : 16 bits
Compression mode            : Lossy
Delay relative to video     : 480 ms
Stream size                 : 199 MiB (17%)
Language                    : Italian
Default                     : Yes
Forced                      : No

Audio #2
ID                          : 3
Format                      : AC-3
Format/Info                 : Audio Coding 3
Mode extension              : CM (complete main)
Format settings, Endianness : Big
Codec ID                    : A_AC3
Duration                    : 1 h 12 min
Bit rate mode               : Constant
Bit rate                    : 448 kb/s
Channel(s)                  : 6 channels
Channel positions           : Front: L C R, Side: L R, LFE
Sampling rate               : 48.0 kHz
Frame rate                  : 31.250 FPS (1536 spf)
Bit depth                   : 16 bits
Compression mode            : Lossy
Stream size                 : 232 MiB (20%)
Language                    : English
Default                     : No
Forced                      : No

Text #1
ID                          : 4
Format                      : VobSub
Muxing mode                 : zlib
Codec ID                    : S_VOBSUB
Codec ID/Info               : Picture based subtitle format used on DVDs
Duration                    : 1 h 7 min
Bit rate                    : 46 b/s
Count of elements           : 25
Stream size                 : 22.9 KiB (0%)
Title                       : FORCED
Language                    : Italian
Default                     : Yes
Forced                      : Yes

Text #2
ID                          : 5
Format                      : VobSub
Muxing mode                 : zlib
Codec ID                    : S_VOBSUB
Codec ID/Info               : Picture based subtitle format used on DVDs
Duration                    : 1 h 11 min
Bit rate                    : 1 865 b/s
Count of elements           : 634
Stream size                 : 982 KiB (0%)
Language                    : Italian
Default                     : No
Forced                      : No

Text #3
ID                          : 6
Format                      : VobSub
Muxing mode                 : zlib
Codec ID                    : S_VOBSUB
Codec ID/Info               : Picture based subtitle format used on DVDs
Duration                    : 1 h 12 min
Bit rate                    : 1 844 b/s
Count of elements           : 626
Stream size                 : 977 KiB (0%)
Language                    : English
Default                     : No
Forced                      : No

Text #4
ID                          : 7
Format                      : VobSub
Muxing mode                 : zlib
Codec ID                    : S_VOBSUB
Codec ID/Info               : Picture based subtitle format used on DVDs
Duration                    : 1 h 12 min
Bit rate                    : 2 007 b/s
Count of elements           : 668
Stream size                 : 1.04 MiB (0%)
Title                       : HEARING IMPAIRED
Language                    : English
Default                     : No
Forced                      : No


[img]http://i.imgur.com/pBGfMGu.png[/img]

In questa versione sono compresi gli extra:

1 - Casey vince ancora
2 - Il torsolo di mela di Paperino
3 - Lambert il leone tenerone

[/center]
Lo scrigno delle sette perle (1948) - iCV-MIRCrew.mkv 1.229 GB
EXTRA - iCV-MIRCrew/2 - Il torsolo di mela di Paperino.mkv 113.472 MB
EXTRA - iCV-MIRCrew/3 - Lambert il leone tenerone.mkv 121.521 MB
Gathering some info...

Register and log in Isohunt and see no captcha anymore!

4000 symbols left
Hash 7311c035d6b05c0b80b3362698c015a06c10ab10

Related torrents for "Lo scrigno delle sette perle - Melody Time (1948 Ita/Eng) + EXTRA [iCV-MIRCrew] [Isohunt.to]"